Pokemon 13 Zoroark El Maestro De Las Ilusiones Kvcd Latino Descarga 1 Link

Pokemon 13 Zoroark El Maestro De Las Ilusiones Kvcd Latino Descarga 1 Link

Título original: Gekijô ban poketto monsutâ: Daiamondo & Pâru – Gen’ei no hasha Zoroâku (Pokémon Movie 12)
Género: Animación. Fantástico. Aventuras. Infantil
Duración: 100 min.
País: Japón
Año: 2010
Dirección: Kunihiko Yuyama
Guión: Hideki Sonada
Fotografía:Animación
Música: Shinji Miyazaki
Reparto:Animación

Celebi observa a Raikou, Entei, y Suicune luchando en el futuro y para prevenirlo, Celebi viaja a través del pasado. Mientras tanto, Ash ve a un campeón fantasma que es idéntico a él.

Format : MPEG-PS
File size : 472 MiB
Duration : 1h 30mn
Overall bit rate : 729 Kbps
Writing library : encoded by TMPGEnc (ver. 2.524.63.181)
Video #224
ID : 224 (0xE0)
Format : MPEG Video
Format version : Version 1
Format settings, Matrix : Default
Duration : 1h 30mn
Bit rate mode : Variable
Bit rate : 572 Kbps
Width : 352 pixels
Height : 240 pixels
Display aspect ratio : 4:3
Frame rate : 23.976 fps
Scan type : Progressive
Bits/(Pixel*Frame) : 0.282
Stream size : 370 MiB (78%)
Writing library : TMPGEnc 2.524.63.181
Audio #192
ID : 192 (0xC0)
Format : MPEG Audio
Format version : Version 1
Format profile : Layer 2
Duration : 1h 30mn
Bit rate mode : Constant
Bit rate : 128 Kbps
Channel(s) : 2 channels
Sampling rate : 44.1 KHz
Resolution : 16 bits
Stream size : 82.9 MiB (18%)

Este contenido desafortunadamente ya no se encuentra disponible.

Relacionados: No sin Ella (2015) DVDRip Latino Big Action Mega Fight PC Full Reach Me (2014) DVDRip Latino PowerISO v6.6 Full Español Final Puente de Espías (2015) DVDRip Latino


Los Comentarios Estan Cerrados.