Megashark Vs Crocosaurus DVDRip Subtitulos Pegados Español Descarga 1 Link

El tiburón prehistórico masiva ha sobrevivido a la última batalla, y el mundo está de nuevo amenazada cuando un nuevo enemigo, más peligroso es el descubierto en las selvas de África. Esto es básicamente una continuación de la recta de vídeo favorito ‘Mega Shark vs Giant Octopus’.

Titulo Original: Mega Shark vs Crocosaurus
GENERO: Terror, Acción
TEMÁTICA: Animales, Criptozoología
PAIS: Estados Unidos
AÑO: 2010

Format : MPEG-PS
File size : 781 MiB
Duration : 1h 28mn
Overall bit rate : 1 236 Kbps
Writing library : encoded by TMPGEnc 4.0 XPress Version. 4.4.1.237
Video #224
ID : 224 (0xE0)
Format : MPEG Video
Format version : Version 1
Format settings, Matrix : Default
Duration : 1h 28mn
Bit rate mode : Constant
Bit rate : 1 059 Kbps
Nominal bit rate : 1 092 Kbps
Width : 352 pixels
Height : 240 pixels
Display aspect ratio : 4:3
Frame rate : 29.970 fps
Scan type : Progressive
Bits/(Pixel*Frame) : 0.418
Stream size : 670 MiB (86%)
Writing library : TMPGEnc XPress 4.4.1.237
Audio #192
ID : 192 (0xC0)
Format : MPEG Audio
Format version : Version 1
Format profile : Layer 2
Duration : 1h 28mn
Bit rate mode : Constant
Bit rate : 128 Kbps
Channel(s) : 2 channels
Sampling rate : 44.1 KHz
Resolution : 16 bits
Stream size : 80.9 MiB (10%)

Tamaño Real

Click Ver Tamaño Real

Enlaces de Descarga 1 Link

Varias Opciones

Freaksahre

http://freakshare.com/files/urvd5ori/_MeG_-_ShaRk_DvdRipSubpeg_esp_www.CompucaliTV.Com.rar.html

Filefactory


Bitshare

http://bitshare.com/files/panxfnoc/_MeG_-_ShaRk_DvdRipSubpeg_esp_www.CompucaliTV.Com.rar.html

Fileserve

Relacionados: The Hunger Games: Mockingjay. Parte 2 HD 1080p Latino Hot Bot (2016) DVDRip Latino Carlitos y Snoopy. La película de Peanuts 3D SBS Latino Juegos Demoníacos DVDRip Latino Un Gran Dinosaurio 3D SBS Latino Dual

Dejar un Comentario

Debes De Estar Registrado Inicia Sesion Aqui Para Comentar.